روهلات للموسيقا ترحب بكم
عزيزي الزائر يرجى التسجيل في المنتدى لكي تستطيع الرد أو إضافة المواضيع و لكي تجد كل جديد في إيميلك الخاص قم بالتسجيل في منتديات شروق الشمس روهلات . (ولكم جزيل الشكر) مع تحيات روهلات للموسيقا
روهلات للموسيقا ترحب بكم

 
الرئيسيةالرئيسية  صفحة روهلاتصفحة روهلات  بحـثبحـث  التسجيلالتسجيل  دخولدخول  

شاطر | 
 

 فيلم The.Descent على اكثر من سيرفر

استعرض الموضوع السابق استعرض الموضوع التالي اذهب الى الأسفل 
كاتب الموضوعرسالة
زائر
زائر



مُساهمةموضوع: فيلم The.Descent على اكثر من سيرفر   الجمعة يونيو 04, 2010 11:25 am

The.Descent





















Movie


Format : AVI

Format/Info : Audio
Video Interleave



File size : 700 MiB


Duration
: 1h 35mn



Overall bit rate : 1 026
Kbps



Writing application : VirtualDubMod
1.5.10.1 (build 2366/release)



Writing
library : VirtualDubMod build 2366/release






Video

ID : 0


Format
: MPEG-4 Visual



Format profile :
Advanced Simple@L5



Format settings, BVOP :
Yes



Format settings, QPel : No


Format
settings, GMC : No warppoints



Format
settings, Matrix : Default (H.263)



Codec
ID : DX50



Codec ID/Hint : DivX 5


Duration
: 1h 35mn



Bit rate : 824 Kbps


Width
: 500 pixels



Height : 210 pixels


Display
aspect ratio : 2.35:1



Frame rate : 25.000 fps


Resolution
: 8 bits



Colorimetry : 4:2:0


Scan
type : Progressive



Bits/(Pixel*Frame) :
0.314



Stream size : 562 MiB (80%)


Writing
library : XviD 1.0.3 (UTC 2004-12-20)






Audio

ID : 1


Format
: AC-3



Format/Info : Audio Coding 3


Codec
ID : 2000



Duration : 1h 35mn


Bit
rate mode : Constant



Bit rate : 192 Kbps


Channel(s)
: 2 channels



Channel positions : L R


Sampling
rate : 48.0 KHz



Stream size : 131 MiB
(19%)



















download.png" border="0" alt="" />


ifile.it


http://short.moon17.com/6592


http://short.moon17.com/6593




slingfile

http://short.moon17.com/6594


http://short.moon17.com/6595



sendspace

http://short.moon17.com/6596


http://short.moon17.com/6597




hotfile

http://short.moon17.com/6598


http://short.moon17.com/6599


mediafire
http://short.moon17.com/6600


http://short.moon17.com/6601




x7.to

http://short.moon17.com/6602


http://short.moon17.com/6603


megaupload
http://short.moon17.com/6604


http://short.moon17.com/6605



الرجوع الى أعلى الصفحة اذهب الى الأسفل
 
فيلم The.Descent على اكثر من سيرفر
استعرض الموضوع السابق استعرض الموضوع التالي الرجوع الى أعلى الصفحة 
صفحة 1 من اصل 1
 مواضيع مماثلة
-
» تحميل لعبة الرعب والغموض Amnesia: The Dark Descentكاملة بمساحة800ميجا

صلاحيات هذا المنتدى:لاتستطيع الرد على المواضيع في هذا المنتدى
روهلات للموسيقا ترحب بكم :: ~~~ قسم الأفلام :: *** أفلام اجنبية ***-
انتقل الى: